<?xml version="1.0" standalone="no"?>
<!DOCTYPE svg PUBLIC "-//W3C//DTD SVG 1.1//EN" "http://www.w3.org/Graphics/SVG/1.1/DTD/svg11.dtd" >
<svg xmlns="http://www.w3.org/2000/svg">
<defs>
  <font id="Nucleo" horiz-adv-x="1112">
    <font-face font-family="Nucleo"
      units-per-em="256" ascent="256"
      descent="0" />
    <missing-glyph horiz-adv-x="0" />
    <glyph glyph-name="account"
      unicode="&#xEA04;"
      horiz-adv-x="256" d="M118.5 250.001C95.373 246.767 75.386 231.797 65.069 209.982C55.833 190.452 57.295 164.445 68.683 145.698C73.3 138.098 81.584 129.218 88.505 124.452L94.037 120.642L84.191 117.42C65.047 111.157 52.951 103.794 38.704 89.732C27.994 79.162 22.563 71.574 16.438 58.623C10.58 46.235 7.344 34.454 6.072 20.876C4.461 3.67 4.102 5 10.35 5L15.699 5L16.351 14.94C17.412 31.136 20.532 43.171 26.995 56.004C41.084 83.98 66.427 103.182 98.5 110.181C106.726 111.976 149.274 111.976 157.5 110.181C189.022 103.302 213.907 84.804 228.059 57.732C235.296 43.889 238.536 31.925 239.649 14.94L240.301 5L245.65 5C251.898 5 251.539 3.67 249.928 20.876C248.656 34.454 245.42 46.235 239.562 58.623C233.609 71.211 228.506 78.381 217.732 89.296C203.919 103.291 191.217 111.07 171.809 117.42L161.963 120.642L167.495 124.452C174.416 129.218 182.7 138.098 187.317 145.698C198.705 164.445 200.167 190.452 190.931 209.982C181.478 229.971 164.798 243.649 143.5 248.878C137.361 250.385 125.167 250.933 118.5 250.001M146.206 237.044C154.96 234.306 166.849 226.279 172.593 219.227C182.052 207.615 186.374 195.544 186.28 181C185.998 137.268 140.411 109.653 101.145 129.427C72.79 143.706 61.421 179.18 75.981 207.948C83.813 223.424 98.266 234.673 115.317 238.564C123.543 240.442 137.548 239.753 146.206 237.044" />
    <glyph glyph-name="arrow-down"
      unicode="&#xEA07;"
      horiz-adv-x="256" d="M123 136.755L123 28.511L88.224 63.276L53.447 98.042L49.742 94.248L46.037 90.454L87.019 49.481L128 8.509L168.981 49.481L209.963 90.454L206.258 94.248L202.553 98.042L167.776 63.276L133 28.511L133 136.755L133 245L128 245L123 245L123 136.755" />
    <glyph glyph-name="arrow-left"
      unicode="&#xEA08;"
      horiz-adv-x="256" d="M49.481 168.981L8.509 128L49.481 87.019L90.454 46.037L94.248 49.742L98.042 53.447L63.276 88.224L28.511 123L136.755 123L245 123L245 128L245 133L136.755 133L28.511 133L63.276 167.776L98.042 202.553L94.248 206.258L90.454 209.963L49.481 168.981" />
    <glyph glyph-name="arrow-right"
      unicode="&#xEA09;"
      horiz-adv-x="256" d="M161.735 206.269L157.989 202.522L192.739 167.761L227.489 133L119.245 133L11 133L11 128L11 123L119.245 123L227.489 123L192.724 88.224L157.958 53.447L161.752 49.742L165.546 46.037L206.52 87.02L247.494 128.003L206.488 169.009L165.482 210.015L161.735 206.269" />
    <glyph glyph-name="arrow-up"
      unicode="&#xEA0A;"
      horiz-adv-x="256" d="M86.739 206.239L45.988 165.479L49.733 161.734L53.478 157.989L88.239 192.739L123 227.489L123 119.245L123 11L128 11L133 11L133 119.245L133 227.489L167.776 192.724L202.553 157.958L206.258 161.752L209.963 165.546L169.227 206.273C146.822 228.673 128.266 247 127.991 247C127.716 247 109.153 228.658 86.739 206.239" />
    <glyph glyph-name="at-sign"
      unicode="&#xEA0B;"
      horiz-adv-x="256" d="M110.5 248.984C93.408 245.908 72.554 237.09 60.012 227.633C18.559 196.38 1.08 141.963 16.381 91.799C19.614 81.196 28.262 64.089 34.943 55.077C41.599 46.099 55.79 32.637 64.983 26.58C79.911 16.746 98.446 9.501 115.409 6.869C119.476 6.238 129.049 5.978 137.985 6.256C151.093 6.665 155.344 7.22 165.381 9.834C171.916 11.536 177.415 13.082 177.602 13.268C177.789 13.455 177.219 15.866 176.337 18.626L174.732 23.645L165.477 20.893C137.601 12.606 110.323 15.029 83.5 28.176C72.558 33.538 65.68 38.331 56.865 46.734C45.874 57.21 39.839 65.394 33.443 78.5C23.716 98.43 19.981 117.802 21.937 138.18C26.72 188.016 58.486 225.344 106.1 237.08C118.283 240.083 140.98 240.336 153.796 237.613C176.588 232.769 194.557 223.336 208.614 208.837C216.977 200.211 220.983 194.483 225.513 184.675C231.15 172.47 233.081 163.34 233.699 145.976C234.191 132.129 234.014 129.538 232.059 121.995C227.686 105.127 218.097 91.635 206.383 85.868C195.092 80.309 183.394 81.11 178.5 87.776C176.575 90.398 176.49 92.308 176.222 138.75L175.945 187L170.472 187L165 187L165 176.359L165 165.718L161.001 170.261C146.983 186.187 124.169 190.885 105.029 181.788C96.181 177.582 85.41 166.812 81.239 158C69.99 134.235 74.085 106.805 91.467 89.491C111.301 69.735 140.509 69.989 160.085 90.088L164.943 95.075L165.544 92.287C167.37 83.817 173.185 76.575 180.86 73.21C186.348 70.804 199.047 71.161 206.225 73.922C229.701 82.954 245.003 109.945 244.999 142.315C244.995 172.696 234.517 198.589 214.343 218.075C199.267 232.637 182.221 241.77 160 247.191C153.384 248.805 147.51 249.333 133.5 249.574C123.6 249.745 113.25 249.479 110.5 248.984M135.76 174.152C149.425 169.899 158.903 159.461 163.519 143.583C165.862 135.525 165.174 120.72 162.088 112.757C157.617 101.223 147.897 91.404 137 87.414C129.711 84.745 118.48 85.176 111.45 88.394C95.347 95.766 85.798 111.188 85.687 130C85.607 143.647 89.515 154.36 97.808 163.226C108.39 174.539 121.962 178.446 135.76 174.152" />
    <glyph glyph-name="b-eye"
      unicode="&#xEA0E;"
      horiz-adv-x="256" d="M196.375 224.88L174.255 202.761L167.564 205.437C155.032 210.451 146.381 212.195 131.5 212.708C120.019 213.104 115.791 212.832 108 211.198C89.31 207.277 73.276 199.832 55.064 186.62C37.385 173.794 8.653 141.91 6.081 132.263C5.107 128.61 5.796 122.81 7.553 119.868C11.608 113.08 25.225 96.893 34.966 87.281L46.906 75.5L27.716 56.254L8.526 37.007L12.267 33.267L16.007 29.526L35.787 49.287L55.567 69.048L64.033 63.406C99.849 39.535 139.035 36.432 176.209 54.522C199.139 65.68 224.161 87.21 242.322 111.408C253.483 126.278 253.362 129.896 241.168 146.093C227.218 164.622 206.182 184.161 189.245 194.321L183.99 197.473L205.213 218.714L226.437 239.954L223.022 243.477C221.144 245.415 219.357 247 219.051 247C218.745 247 208.541 237.046 196.375 224.88M143.969 200.087C150.693 197.994 161 192.203 161 190.518C161 189.935 156.974 185.451 152.053 180.553L143.107 171.648L138.828 173.574C132.781 176.296 121.902 176.159 116.447 173.291C103.785 166.635 98.537 152.827 103.495 139.216L105.419 133.933L96.175 124.716L86.93 115.5L84.963 118C78.789 125.846 75.029 137.872 75.012 149.824C74.98 172.479 90.099 193.131 111.798 200.069C119.836 202.639 135.74 202.648 143.969 200.087M73.428 182.31C60.777 161.302 61.197 134.793 74.501 114.549L79.069 107.599L67.3 95.799C60.827 89.31 55.015 84 54.384 84C53.753 84 48.166 89.062 41.967 95.25C30.072 107.123 16 124.871 16 128C16 133.633 45.118 166.117 60 177.086C66.054 181.549 75.838 187.946 76.677 187.991C76.774 187.996 75.312 185.44 73.428 182.31M195.926 176.627C201.11 172.734 209.85 165.038 215.349 159.525C226.246 148.598 240 130.985 240 127.957C240 125.693 229.245 111.309 220.218 101.5C212.147 92.73 196.537 79.177 188 73.529C179.492 67.9 165.151 60.811 157 58.206C146.444 54.832 139.139 53.696 128 53.696C112.45 53.696 100.12 56.651 84.5 64.12C75.605 68.373 64 75.518 64 76.741C64 77.176 69.146 82.664 75.435 88.935L86.869 100.337L90.185 97.809C100.321 90.078 113.978 85.709 128 85.709C177.801 85.709 208.248 139.672 182.537 182.368L179.076 188.116L182.788 185.91C184.83 184.697 190.742 180.519 195.926 176.627M175.965 171.911C177.598 168.456 179.45 163.148 180.08 160.114C181.685 152.385 180.768 138.778 178.155 131.539C169.097 106.448 141.894 91.456 116.352 97.479C109.732 99.041 101.03 102.865 97 105.984L94.5 107.918L103.919 117.398L113.338 126.877L116.374 125.307C120.374 123.238 130.457 122.495 135.606 123.888C149.959 127.773 158.267 145.487 152.466 159.837L150.713 164.174L160.017 173.517L169.322 182.861L171.158 180.526C172.168 179.242 174.331 175.366 175.965 171.911" />
    <glyph glyph-name="bill"
      unicode="&#xEA0F;"
      horiz-adv-x="256" d="M27 131.417C27 65.646 27.372 11.983 27.826 12.167C28.28 12.35 36.593 17.867 46.299 24.426L63.945 36.352L79.972 25.673L96 14.993L112 25.654L128 36.315L144 25.654L160 14.993L176.028 25.673L192.055 36.352L209.701 24.426C219.407 17.867 227.72 12.35 228.174 12.167C228.628 11.983 229 65.646 229 131.417L229 251L128 251L27 251L27 131.417M219 135.482L219 30.965L205.511 39.993L192.021 49.021L176.011 38.353L160 27.685L144 38.346L128 49.007L112 38.346L96 27.685L79.989 38.353L63.979 49.021L50.489 39.993L37 30.965L37 135.482L37 240L128 240L219 240L219 135.482M121.78 217.969C102.94 214.797 90.085 198.403 91.208 178.98C92.216 161.546 104.357 148.044 121.97 144.768C137.636 141.855 154.981 150.98 161.709 165.675C164.88 172.601 165.885 183.669 163.987 190.746C159.023 209.247 140.591 221.137 121.78 217.969M137.369 205.963C143.485 203.675 150.165 197.237 152.698 191.19C154.911 185.906 154.688 176.345 152.223 170.77C144.891 154.196 122.791 149.703 109.939 162.175C98.876 172.911 98.818 189.581 109.805 200.309C117.238 207.568 127.47 209.667 137.369 205.963M69 117.5L69 112L106.5 112L144 112L144 117.5L144 123L106.5 123L69 123L69 117.5M165 117.5L165 112L176 112L187 112L187 117.5L187 123L176 123L165 123L165 117.5M69 85.5L69 80L106.5 80L144 80L144 85.5L144 91L106.5 91L69 91L69 85.5M165 85.5L165 80L176 80L187 80L187 85.5L187 91L176 91L165 91L165 85.5" />
    <glyph glyph-name="c-check"
      unicode="&#xEA1E;"
      horiz-adv-x="256" d="M115.582 249.906C77.887 246.139 43.172 224.163 23.352 191.52C-11.697 133.795 6.739 58.411 64.48 23.352C122.205 -11.697 197.589 6.739 232.648 64.48C261.996 112.816 254.536 174.439 214.487 214.487C188.381 240.593 152.166 253.563 115.582 249.906M144.672 238.504C206.069 228.546 248.245 171.384 238.504 111.328C228.546 49.931 171.384 7.755 111.328 17.496C49.931 27.454 7.755 84.616 17.496 144.672C27.453 206.067 84.619 248.244 144.672 238.504M149.002 135.502L106.513 93.004L85.26 114.239L64.008 135.475L60.264 131.73L56.519 127.986L81.513 102.992L106.507 77.998L152.974 124.474L199.441 170.949L196.025 174.475C194.145 176.414 192.356 178 192.049 178C191.742 178 172.371 158.876 149.002 135.502" />
    <glyph glyph-name="c-remove"
      unicode="&#xEA23;"
      horiz-adv-x="256" d="M115.582 249.906C77.887 246.139 43.172 224.163 23.352 191.52C-11.697 133.795 6.739 58.411 64.48 23.352C122.205 -11.697 197.589 6.739 232.648 64.48C261.996 112.816 254.536 174.439 214.487 214.487C188.381 240.593 152.166 253.563 115.582 249.906M144.672 238.504C206.069 228.546 248.245 171.384 238.504 111.328C228.546 49.931 171.384 7.755 111.328 17.496C49.931 27.454 7.755 84.616 17.496 144.672C27.453 206.067 84.619 248.244 144.672 238.504M81.733 174.267L77.992 170.525L99.237 149.263L120.483 128L99.237 106.737L77.992 85.475L81.733 81.733L85.475 77.992L106.737 99.237L128 120.483L149.263 99.237L170.525 77.992L174.267 81.733L178.008 85.475L156.763 106.737L135.517 128L156.763 149.263L178.008 170.525L174.267 174.267L170.525 178.008L149.263 156.763L128 135.517L106.737 156.763L85.475 178.008L81.733 174.267" />
    <glyph glyph-name="c-warning"
      unicode="&#xEA24;"
      horiz-adv-x="256" d="M115.582 249.906C77.887 246.139 43.172 224.163 23.352 191.52C-11.697 133.795 6.739 58.411 64.48 23.352C122.205 -11.697 197.589 6.739 232.648 64.48C261.996 112.816 254.536 174.439 214.487 214.487C188.381 240.593 152.166 253.563 115.582 249.906M144.672 238.504C206.069 228.546 248.245 171.384 238.504 111.328C228.546 49.931 171.384 7.755 111.328 17.496C49.931 27.454 7.755 84.616 17.496 144.672C27.453 206.067 84.619 248.244 144.672 238.504M123 149L123 101L128 101L133 101L133 149L133 197L128 197L123 197L123 149M122.353 78.074C113.542 72.701 117.661 59 128.088 59C135.475 59 140.479 66.525 137.628 73.348C136.078 77.058 131.725 80.003 127.8 79.996C126.535 79.994 124.084 79.129 122.353 78.074" />
    <glyph glyph-name="calendar-date"
      unicode="&#xEA25;"
      horiz-adv-x="256" d="M64 240L64 229L34.5 229L5 229L5 120L5 11L128 11L251 11L251 120L251 229L229.5 229L208 229L208 224L208 219L224 219L240 219L240 195L240 171L128 171L16 171L16 195L16 219L40 219L64 219L64 205.5L64 192L69.5 192L75 192L75 221.5L75 251L69.5 251L64 251L64 240M181 240L181 229L136 229L91 229L91 224L91 219L136 219L181 219L181 205.5L181 192L186.5 192L192 192L192 221.5L192 251L186.5 251L181 251L181 240M240 90.5L240 21L128 21L16 21L16 90.5L16 160L128 160L240 160L240 90.5M91 117.5L91 96L67 96L43 96L43 90.5L43 85L67 85L91 85L91 64L91 43L96 43L101 43L101 64L101 85L128 85L155 85L155 64L155 43L160 43L165 43L165 64L165 85L189 85L213 85L213 90.5L213 96L189 96L165 96L165 117.5L165 139L160 139L155 139L155 117.5L155 96L128 96L101 96L101 117.5L101 139L96 139L91 139L91 117.5" />
    <glyph glyph-name="card-edit"
      unicode="&#xEA26;"
      horiz-adv-x="256" d="M21.5 243.056C16.139 240.641 10.199 234.658 7.614 229.07C5.521 224.545 5.5 223.75 5.5 149L5.5 73.5L7.859 68.752C10.236 63.968 16.948 57.65 22.5 54.969C24.916 53.802 32.843 53.457 63.25 53.195L101 52.87L101 58.4L101 63.93L63.572 64.215C27.563 64.489 26.039 64.578 23.384 66.562C21.866 67.696 19.696 69.865 18.562 71.383C16.594 74.018 16.487 75.618 16.211 106.572L15.921 139L133.51 139L251.099 139L250.8 181.75C250.511 222.881 250.42 224.674 248.377 229.089C245.644 235 239.943 240.667 234.297 243.087C229.995 244.931 226.145 244.997 127.667 244.929C31.468 244.863 25.266 244.753 21.5 243.056M232.281 232.149C238.175 228.485 240 223.848 240 212.54L240 203L128 203L16 203L16 212.614C16 220.652 16.359 222.866 18.189 226.123C20.483 230.204 23.569 232.721 27.914 234.054C29.336 234.49 75.05 234.769 129.5 234.674L228.5 234.5L232.281 232.149M240 170.5L240 149L128 149L16 149L16 170.5L16 192L128 192L240 192L240 170.5M173.318 79.75L139.148 45.5L135.997 29.5C134.264 20.7 132.622 12.547 132.348 11.383C131.857 9.298 132.128 9.321 149.921 12.883L167.993 16.5L202.493 50.991L236.993 85.482L222.759 99.741C214.931 107.583 208.293 114 208.007 114C207.722 114 192.112 98.588 173.318 79.75M43 101.5L43 96L72 96L101 96L101 101.5L101 107L72 107L43 107L43 101.5M215.267 92.234L221.981 85.469L192.241 55.819L162.5 26.168L154.594 24.574C150.245 23.697 146.467 23.2 146.197 23.469C145.928 23.739 146.453 27.681 147.364 32.23L149.021 40.5L178.254 69.75C194.332 85.838 207.727 99 208.02 99C208.314 99 211.575 95.955 215.267 92.234" />
    <glyph glyph-name="compass-1"
      unicode="&#xEA2E;"
      horiz-adv-x="256" d="M123 240.158L123 229.317L118.75 228.062C107.68 224.795 98.94 217.37 94.16 207.175C91.865 202.278 91.5 200.197 91.5 192C91.5 183.825 91.868 181.716 94.135 176.88C95.585 173.789 98.353 169.508 100.287 167.367L103.804 163.475L87.723 137.737L71.641 112L54.321 112L37 112L37 106.5L37 101L50.607 101C61.085 101 64.102 100.713 63.728 99.75C63.461 99.062 53.149 82.3 40.813 62.5C28.477 42.7 18.056 25.954 17.655 25.286C16.852 23.948 24.473 18.556 25.911 19.445C26.371 19.729 38.134 38.196 52.05 60.481L77.352 101L100.176 101L123 101L123 90.5L123 80L128 80L133 80L133 90.5L133 101L155.824 101L178.648 101L203.95 60.481C217.866 38.196 229.629 19.729 230.089 19.445C231.527 18.556 239.148 23.948 238.345 25.286C237.944 25.954 227.523 42.7 215.187 62.5C202.851 82.3 192.539 99.062 192.272 99.75C191.898 100.713 194.915 101 205.393 101L219 101L219 106.5L219 112L201.679 112L184.359 112L168.277 137.737L152.196 163.475L155.713 167.367C157.647 169.508 160.415 173.789 161.865 176.88C164.132 181.716 164.5 183.825 164.5 192C164.5 200.197 164.135 202.278 161.84 207.175C157.06 217.37 148.32 224.795 137.25 228.062L133 229.317L133 240.158L133 251L128 251L123 251L123 240.158M139.5 215.617C145.641 212.714 149.23 208.998 152.046 202.63C156.258 193.105 154.064 180.806 146.817 173.316C137.307 163.488 119.402 163.424 109.316 173.183C99.668 182.519 99.422 200.368 108.804 210.376C115.885 217.931 129.638 220.279 139.5 215.617M128 155C131.712 155 136.611 155.657 138.887 156.46L143.025 157.92L145.358 154.21C161.119 129.147 171 113.12 171 112.617C171 112.278 162.45 112 152 112L133 112L133 122.5L133 133L128 133L123 133L123 122.5L123 112L104 112C93.55 112 85 112.278 85 112.617C85 113.12 94.881 129.147 110.642 154.21L112.975 157.92L117.113 156.46C119.389 155.657 124.288 155 128 155" />
    <glyph glyph-name="configuration-tools"
      unicode="&#xEA2F;"
      horiz-adv-x="256" d="M35.071 238.845C26.729 236.424 19.124 228.419 16.994 219.82C16.263 216.868 16.016 186.99 16.212 125.5C16.491 38.326 16.562 35.375 18.467 31.533C20.98 26.465 26.465 20.98 31.533 18.467C35.391 16.554 38.031 16.5 128 16.5C217.969 16.5 220.609 16.554 224.467 18.467C229.535 20.98 235.02 26.465 237.533 31.533C239.446 35.391 239.5 38.031 239.5 128C239.5 217.969 239.446 220.609 237.533 224.467C235.02 229.535 229.535 235.02 224.467 237.533C220.618 239.442 217.795 239.505 129.5 239.67C71.569 239.779 37.254 239.479 35.071 238.845M220.619 227.377C222.5 226.484 225.043 224.346 226.27 222.627L228.5 219.5L228.5 128L228.5 36.5L226.27 33.373C221.485 26.665 226.648 27 128 27C29.352 27 34.515 26.665 29.73 33.373L27.5 36.5L27.5 128L27.5 219.5L29.718 222.61C34.492 229.302 29.098 228.952 127.849 228.977C208.245 228.998 217.541 228.837 220.619 227.377M170.787 194.75C170.514 187.463 170.51 175.537 170.778 168.25L171.265 155L176.133 155L181 155L181 165.5L181 176L194.5 176L208 176L208 181.5L208 187L194.5 187L181 187L181 197.5L181 208L176.142 208L171.284 208L170.787 194.75M48 181.5L48 176L98.5 176L149 176L149 181.5L149 187L98.5 187L48 187L48 181.5M74.784 144.25L74.5 133.5L61.25 133.221L48 132.942L48 128L48 123.058L61.25 122.779L74.5 122.5L74.784 111.75L75.068 101L79.892 101L84.716 101L85.232 114.5C85.515 121.925 85.515 134.075 85.232 141.5L84.716 155L79.892 155L75.068 155L74.784 144.25M107 128L107 123L157.5 123L208 123L208 128L208 133L157.5 133L107 133L107 128M170.787 87.75C170.514 80.463 170.51 68.537 170.778 61.25L171.265 48L176.133 48L181 48L181 58.5L181 69L194.5 69L208 69L208 74.5L208 80L194.5 80L181 80L181 90.5L181 101L176.142 101L171.284 101L170.787 87.75M48 74.5L48 69L98.5 69L149 69L149 74.5L149 80L98.5 80L48 80L48 74.5" />
    <glyph glyph-name="contact-list"
      unicode="&#xEA30;"
      horiz-adv-x="256" d="M147.897 238.473C128.477 233.759 113.566 219.064 108.357 199.505C106.585 192.853 106.671 180.04 108.542 172C109.374 168.425 112.163 161.225 114.74 156C120.853 143.608 131.892 132.032 142.5 126.892C149.096 123.696 150.106 123.5 160 123.5C169.894 123.5 170.904 123.696 177.5 126.892C188.108 132.032 199.147 143.608 205.26 156C210.854 167.341 212.969 175.706 212.973 186.5C212.978 198.96 209.653 209.059 202.393 218.636C189.676 235.413 167.918 243.333 147.897 238.473M172.068 227.391C179.64 225.148 184.924 221.831 190.766 215.654C197.006 209.056 199.736 203.784 201.639 194.656C204.858 179.215 198.525 160.048 185.657 146.293C169.763 129.302 150.237 129.302 134.343 146.293C125.23 156.034 119.197 169.013 117.505 182.517C116.747 188.569 118.94 200.002 122.016 206.031C124.719 211.329 132.215 219.454 137.5 222.815C146.77 228.709 161.181 230.616 172.068 227.391M5 202.5L5 197L45 197L85 197L85 202.5L85 208L45 208L5 208L5 202.5M5 149.5L5 144L45 144L85 144L85 149.5L85 155L45 155L5 155L5 149.5M5 96L5 91L29 91L53 91L53 96L53 101L29 101L5 101L5 96M134 99.42C104.492 95.18 87.063 88.733 78.703 78.967C70.725 69.646 69.014 62.375 69.006 37.75L69 21L160 21L251 21L250.994 37.75C250.986 62.916 249.424 69.283 240.784 79.392C233.035 88.457 213.574 95.473 185.216 99.427C171.561 101.33 147.273 101.327 134 99.42M184 88.917C204.807 86.109 222.696 80.68 229.899 74.986C237.908 68.655 239.439 64.298 239.822 46.75L240.144 32L160.072 32L80 32L80 45.374C80 63.48 82.644 70.427 91.853 76.521C100.761 82.416 126.963 88.716 149.5 90.382C156.556 90.903 175.122 90.115 184 88.917" />
    <glyph glyph-name="contactless-card"
      unicode="&#xEA31;"
      horiz-adv-x="256" d="M18.007 211.407C13.44 209.427 10.303 206.425 7.653 201.5C5.504 197.507 5.5 197.368 5.5 122.5L5.5 47.5L8.209 42.892C10.927 38.269 14.029 35.588 19.365 33.254C21.602 32.275 45.396 32 127.918 32L233.607 32L238.691 34.533C244.308 37.332 248.213 42.193 249.912 48.5C251.628 54.873 251.315 193.371 249.573 198.252C247.553 203.914 243.21 209.001 238.616 211.087C234.678 212.875 229.901 212.955 128 212.939C35.104 212.924 21.054 212.728 18.007 211.407M233.986 201.248C235.903 200.287 238.034 198.375 238.721 197C240.382 193.676 240.575 53.948 238.925 49.215C236.615 42.588 243.96 42.997 127.785 43.032C46.576 43.056 22.146 43.342 20.954 44.282C20.104 44.952 18.641 46.613 17.704 47.973C16.137 50.246 16 56.236 16 122.272C16 201.643 15.765 198.687 22.315 201.536C24.959 202.686 42.919 202.928 128 202.959C223.633 202.994 230.734 202.88 233.986 201.248M189.385 180.829C187.798 179.635 186.104 178.316 185.62 177.899C185.136 177.482 186.595 174.364 188.861 170.97C199.781 154.618 199.785 133.389 188.872 117.047C184.338 110.257 184.213 110.935 190.856 106.281C193.106 104.705 193.298 104.741 195.091 107.065C196.124 108.404 198.753 112.898 200.932 117.051C211.308 136.824 209.785 158.897 196.708 178.248C194.944 180.86 193.223 182.997 192.885 182.998C192.547 182.999 190.972 182.023 189.385 180.829M48 149.5L48 128L72 128L96 128L96 149.5L96 171L72 171L48 171L48 149.5M162.75 160.735L159.001 157.5L162 153.1C166.106 147.077 166.122 141.161 162.05 134.74L159.1 130.089L163.164 126.87L167.228 123.651L169.115 126.076C175.495 134.275 177.628 144.859 174.439 152.491C172.656 156.758 168.038 164.007 167.117 163.985C166.778 163.977 164.813 162.514 162.75 160.735M85 149.5L85 139L72 139L59 139L59 149.5L59 160L72 160L85 160L85 149.5M134.014 153.289C129.64 151.044 127.793 147.583 128.371 142.711C128.916 138.115 130.442 136.132 134.854 134.288C145.042 130.03 153.737 142.77 146.25 150.987C142.742 154.837 138.562 155.623 134.014 153.289M48 80L48 75L90.5 75L133 75L133 80L133 85L90.5 85L48 85L48 80M165 80L165 75L186.5 75L208 75L208 80L208 85L186.5 85L165 85L165 80" />
    <glyph glyph-name="contacts"
      unicode="&#xEA32;"
      horiz-adv-x="256" d="M21 128L21 5L103.75 5.006C151.875 5.009 188.954 5.413 192.364 5.972C207.102 8.385 218.761 18.907 222.575 33.236C224.65 41.03 224.65 214.97 222.575 222.764C218.761 237.093 207.102 247.615 192.364 250.028C188.954 250.587 151.875 250.991 103.75 250.994L21 251L21 128M53 128L53 16L42.5 16L32 16L32 128L32 240L42.5 240L53 240L53 128M194.612 238.523C201.125 236.588 207.689 230.864 210.626 224.556L212.98 219.5L212.98 128L212.98 36.5L210.626 31.444C209.326 28.652 206.328 24.725 203.93 22.672C196.06 15.936 196.804 16 126.818 16L64 16L64 128L64 240L126.818 240C179.32 240 190.454 239.757 194.612 238.523M91 178.5L91 149L139 149L187 149L187 178.5L187 208L139 208L91 208L91 178.5M235 186.5L235 165L240 165L245 165L245 186.5L245 208L240 208L235 208L235 186.5M176 178.5L176 160L138.5 160L101 160L101 178.5L101 197L138.5 197L176 197L176 178.5M235 117.5L235 96L240 96L245 96L245 117.5L245 139L240 139L235 139L235 117.5M91 122.5L91 117L139 117L187 117L187 122.5L187 128L139 128L91 128L91 122.5" />
    <glyph glyph-name="delete-forever"
      unicode="&#xEA35;"
      horiz-adv-x="256" d="M85 229.5L85 208L48 208L11 208L11 202.5L11 197L128 197L245 197L245 202.5L245 208L208 208L171 208L171 229.5L171 251L128 251L85 251L85 229.5M160 224L160 208L128 208L96 208L96 224L96 240L128 240L160 240L160 224M43 101.083C43 29.526 43.086 25.966 44.913 21.703C47.333 16.057 53 10.356 58.911 7.623C63.438 5.528 64.365 5.5 128 5.5C191.635 5.5 192.562 5.528 197.089 7.623C203 10.356 208.667 16.057 211.087 21.703C212.914 25.966 213 29.526 213 101.083L213 176L208.025 176L203.049 176L202.775 101.75L202.5 27.5L200.149 23.719C198.856 21.639 196.062 19.052 193.939 17.969C190.223 16.073 187.78 16 128 16C68.22 16 65.777 16.073 62.061 17.969C59.938 19.052 57.144 21.639 55.851 23.719L53.5 27.5L53.225 101.75L52.951 176L47.975 176L43 176L43 101.083M91.979 131.479L88.566 127.957L104.521 111.979L120.477 96L104.502 80.002L88.528 64.005L92.267 60.267L96.005 56.528L112.002 72.502L128 88.477L143.998 72.502L159.995 56.528L163.733 60.267L167.472 64.005L151.498 80.002L135.523 96L151.498 111.998L167.472 127.995L163.733 131.733L159.995 135.472L143.998 119.498L128 103.523L112.239 119.262C103.57 127.918 96.233 135 95.935 135C95.636 135 93.856 133.415 91.979 131.479" />
    <glyph glyph-name="delivery-time"
      unicode="&#xEA36;"
      horiz-adv-x="256" d="M54.951 249.986C33.605 246.664 14.608 230.133 7.848 209C4.945 199.924 4.945 184.076 7.848 175C13.659 156.835 28.786 141.712 47 135.858C56.085 132.938 71.915 132.938 81 135.858C100.928 142.262 117.348 160.223 121.356 180L122.673 186.5L138.837 186.775L155 187.05L155 136.025L155 85L160 85L165 85L165 117L165 149L192.801 149L220.602 149L230.301 119.104L240 89.207L240 68.604L240 48L231.248 48L222.497 48L220.072 52.57C214.902 62.315 203.481 69 192 69C180.519 69 169.098 62.315 163.928 52.57L161.503 48L130.86 48L100.217 48L99.544 50.683C98.44 55.081 94.156 61.626 89.815 65.548C79.514 74.855 63.939 77.022 51.305 70.906C44.883 67.797 37.673 60.161 34.946 53.582L32.632 48L24.316 48L16 48L16 88L16 128L10.5 128L5 128L5 82.5L5 37L18.481 37L31.962 37L32.571 34.25C34.725 24.519 38.941 17.682 45.967 12.525C52.535 7.703 58.208 5.843 66.5 5.795C82.759 5.7 96.598 16.441 100.173 31.931L101.343 37L130.544 37L159.744 37L160.407 32.853C161.587 25.476 164.996 19.204 170.62 14.064C189.43 -3.127 219.547 7.556 223.593 32.853L224.256 37L237.628 37L251 37L251 63.75L251 90.5L239.417 125.25L227.833 160L196.417 160L165 160L165 178.48L165 196.96L143.837 197.23L122.674 197.5L121.356 204C117.386 223.589 100.725 241.945 81.495 247.918C74.09 250.218 62.331 251.134 54.951 249.986M75.458 238.469C92.706 233.976 105.991 220.648 110.508 203.307C116.985 178.44 101.068 152.202 75.458 145.531C50.435 139.013 24.221 154.857 17.531 180.542C8.618 214.76 41.24 247.382 75.458 238.469M59 203L59 187L75 187L91 187L91 192L91 197L80 197L69 197L69 208L69 219L64 219L59 219L59 203M77.697 61.155C85.564 57.141 90.2 49.298 90.2 40C90.2 30.751 85.564 22.859 77.806 18.901C61.839 10.755 43.044 22.163 43.044 40C43.044 49.761 49.449 59.146 58.353 62.433C63.728 64.417 72.429 63.842 77.697 61.155M202.456 55.626C214.716 49.036 216.584 31.181 206.012 21.63C191.631 8.637 169.588 19.961 171.209 39.509C172.465 54.649 188.698 63.022 202.456 55.626" />
    <glyph glyph-name="door-3"
      unicode="&#xEA3B;"
      horiz-adv-x="256" d="M110 239.548C80.575 232.806 52.112 226.288 46.75 225.063L37 222.836L37 128.026L37 33.217L39.25 32.659C40.487 32.353 68.5 25.983 101.5 18.505C134.5 11.026 162.287 4.673 163.25 4.386C164.91 3.892 165 10.241 165 127.933C165 196.17 164.662 251.956 164.25 251.903C163.838 251.849 139.425 246.29 110 239.548M154.758 72.704L154.5 17.408L101.257 29.454L48.013 41.5L48.013 128L48.013 214.5L101.257 226.546L154.5 238.592L154.758 183.296C154.901 152.883 154.901 103.117 154.758 72.704M181 224L181 219L194.5 219L208 219L208 128L208 37L194.5 37L181 37L181 32L181 27L200 27L219 27L219 128L219 229L200 229L181 229L181 224M123 107L123 91L128 91L133 91L133 107L133 123L128 123L123 123L123 107" />
    <glyph glyph-name="down-arrow"
      unicode="&#xEA3C;"
      horiz-adv-x="256" d="M17.727 185.233L14.038 181.455L71.019 124.481L128 67.507L184.981 124.481L241.962 181.455L238.256 185.25L234.551 189.044L181.347 135.847L128.142 82.649L80.442 129.574C54.207 155.384 30.194 179.315 27.08 182.755L21.416 189.011L17.727 185.233" />
    <glyph glyph-name="e-add"
      unicode="&#xEA40;"
      horiz-adv-x="256" d="M122.759 186.75L122.5 133.5L69.25 133.241L16 132.982L16 128L16 123.018L69.25 122.759L122.5 122.5L122.759 69.25L123.018 16L128 16L132.982 16L133.241 69.25L133.5 122.5L186.75 122.759L240 123.018L240 128L240 132.982L186.75 133.241L133.5 133.5L133.241 186.75L132.982 240L128 240L123.018 240L122.759 186.75" />
    <glyph glyph-name="e-remove"
      unicode="&#xEA41;"
      horiz-adv-x="256" d="M49.733 206.267L45.988 202.522L83.239 165.261L120.49 128L83.239 90.739L45.988 53.478L49.733 49.733L53.478 45.988L90.739 83.239L128 120.49L165.261 83.239L202.522 45.988L206.267 49.733L210.012 53.478L172.761 90.739L135.51 128L172.761 165.261L210.012 202.522L206.267 206.267L202.522 210.012L165.261 172.761L128 135.51L90.739 172.761L53.478 210.012L49.733 206.267" />
    <glyph glyph-name="email-open"
      unicode="&#xEA46;"
      horiz-adv-x="256" d="M66.177 204.302L4.932 162.552L5.216 97.026L5.5 31.5L8.303 25.792C11.342 19.603 16.832 14.541 22.825 12.4C28.227 10.471 227.773 10.471 233.175 12.4C239.168 14.541 244.658 19.603 247.697 25.792L250.5 31.5L250.784 97.023L251.068 162.546L190.586 203.784C157.322 226.465 129.501 245.254 128.763 245.537C128.025 245.821 99.861 227.265 66.177 204.302M181.649 196.969C210.717 177.152 234.607 160.614 234.738 160.219C235.074 159.207 129.831 87.608 128 87.603C126.172 87.597 20.909 159.205 21.255 160.22C21.615 161.276 126.295 232.787 127.649 232.902C128.282 232.956 152.582 216.786 181.649 196.969M113.757 83.221L128.014 73.628L146.757 86.381C157.066 93.395 182.15 110.483 202.5 124.353L239.5 149.572L239.773 92.536C240.083 27.818 240.222 29.161 232.72 24.196L228.646 21.5L128.073 21.5L27.5 21.5L23.632 23.905C21.248 25.386 19.05 27.88 17.904 30.405C16.16 34.244 16.043 38.109 16.022 92.165L16 149.829L57.75 121.322C80.713 105.643 105.916 88.498 113.757 83.221" />
    <glyph glyph-name="eye"
      unicode="&#xEA47;"
      horiz-adv-x="256" d="M107 211.093C89.475 207.21 72.621 199.397 56.5 187.683C40.512 176.065 21.042 155.946 9.985 139.615C6.55 134.542 6 132.98 6 128.299C6 121.805 6.431 120.911 14.831 110C38.021 79.878 67.238 57.34 95.014 48.149C115.802 41.271 139.941 41.274 161 48.159C188.485 57.144 219.981 81.64 242.322 111.408C253.496 126.295 253.369 129.887 241.097 146.188C216.98 178.22 184.676 201.719 153.1 210.2C141.93 213.2 118.552 213.653 107 211.093M144.217 200.015C161.586 194.65 176.307 178.289 180.069 160.168C181.684 152.39 180.775 138.797 178.155 131.539C169.039 106.287 141.952 91.444 116.103 97.537C98.712 101.637 83.881 114.818 77.845 131.539C75.225 138.797 74.316 152.39 75.931 160.168C79.652 178.093 93.554 193.783 110.977 199.724C119.808 202.735 134.98 202.868 144.217 200.015M73.428 182.31C51.366 145.673 70.575 98.527 112.087 87.424C120.538 85.164 135.462 85.164 143.913 87.424C185.422 98.526 204.634 145.673 182.576 182.305C178.555 188.982 179.028 188.876 191 180.425C200.361 173.817 212.912 162.656 221.28 153.5C229.803 144.174 240 130.276 240 127.985C240 125.093 226.28 107.46 215.855 96.954C192.898 73.817 169.428 59.987 144.5 54.906C136.315 53.238 118.009 53.471 109.5 55.353C85.23 60.719 63.286 73.803 40.961 96.219C29.863 107.362 16 125.013 16 128C16 131.22 30.255 149.173 42.656 161.572C50.579 169.494 58.195 175.935 65.333 180.75C71.244 184.737 76.254 188 76.467 188C76.68 188 75.312 185.44 73.428 182.31M120.994 175.126C104.635 169.758 97.041 152.655 104.368 137.681C108.966 128.283 117.378 123.088 128 123.088C138.622 123.088 147.034 128.283 151.632 137.681C158.112 150.924 152.848 166.446 139.582 173.213C135.218 175.439 125.117 176.479 120.994 175.126" />
    <glyph glyph-name="fairy-wand"
      unicode="&#xEA48;"
      horiz-adv-x="256" d="M143.964 219.318L143.928 194.5L124.464 180.641C113.759 173.018 105 166.643 105 166.474C105 166.305 114.055 163.148 125.123 159.459L145.246 152.752L79.616 87.116L13.986 21.481L17.733 17.733L21.481 13.986L87.116 79.616L152.752 145.246L159.48 125.06C163.18 113.958 166.499 105.152 166.854 105.492C167.209 105.831 173.601 114.522 181.058 124.804L194.615 143.5L219.239 144L243.862 144.5L229.931 163.812C222.269 174.434 216 183.65 216 184.292C216 184.934 219.178 195.303 223.063 207.333C226.947 219.364 229.919 229.414 229.667 229.667C229.414 229.919 219.364 226.947 207.333 223.063C195.303 219.178 184.923 216 184.267 216C183.611 216 175.745 221.304 166.787 227.787C157.829 234.27 149.037 240.601 147.25 241.855L144 244.136L143.964 219.318M48 233.115C48 228.182 44.476 220.739 39.977 216.169C35.452 211.572 27.978 208 22.885 208C21.267 208 21 207.222 21 202.5L21 197L24.25 196.978C34.681 196.908 48 183.361 48 172.822C48 171.28 48.846 171 53.5 171C58.958 171 59 171.023 59 174.033C59 177.823 62.875 185.602 66.636 189.364C70.398 193.125 78.177 197 81.967 197C84.977 197 85 197.042 85 202.5C85 207.154 84.72 208 83.178 208C72.639 208 59.092 221.319 59.022 231.75L59 235L53.5 235C48.778 235 48 234.733 48 233.115M169.731 212.549L181.962 203.786L197.731 208.798C206.404 211.554 213.6 213.715 213.721 213.6C213.843 213.485 211.68 206.295 208.913 197.622L203.884 181.854L213.361 168.677L222.839 155.5L206.244 155L189.65 154.5L180.075 141.275C174.809 134.002 170.263 128.039 169.974 128.025C169.685 128.011 167.272 134.638 164.613 142.75C161.953 150.862 159.265 158.012 158.639 158.639C158.012 159.265 150.863 161.953 142.75 164.613C134.637 167.272 128.017 169.685 128.038 169.974C128.059 170.263 134.134 174.757 141.538 179.96L155 189.419L155 206.332C155 219.711 155.261 223.043 156.25 222.278C156.938 221.746 163.004 217.368 169.731 212.549M61.209 206.581L65.601 202.91L59.551 196.705L53.5 190.5L48.722 195.691C46.094 198.547 43.055 201.165 41.969 201.51C40.248 202.056 40.627 202.637 44.916 206.028C47.624 208.168 50.635 211.267 51.608 212.914L53.377 215.909L55.097 213.081C56.043 211.525 58.793 208.6 61.209 206.581M197 81.967C197 78.177 193.125 70.398 189.364 66.636C185.602 62.875 177.823 59 174.033 59C171.034 59 171 58.94 171 53.659L171 48.318L176.501 47.087C186.836 44.774 197 33.478 197 24.304L197 21L202.5 21C207.222 21 208 21.267 208 22.885C208 27.978 211.572 35.452 216.169 39.977C220.739 44.476 228.182 48 233.115 48C234.733 48 235 48.778 235 53.5L235 59L231.696 59C222.522 59 211.226 69.164 208.913 79.499L207.682 85L202.341 85C197.06 85 197 84.966 197 81.967M208.53 47.475L202.561 41.414L196.53 47.445L190.5 53.476L196.5 59.488L202.5 65.5L208.5 59.517L214.5 53.535L208.53 47.475" />
    <glyph glyph-name="file-play"
      unicode="&#xEA49;"
      horiz-adv-x="256" d="M27 128L27 5L128 5L229 5L229 128L229 251L128 251L27 251L27 128M219 128L219 16L128 16L37 16L37 128L37 240L128 240L219 240L219 128M91 128L91 76.027L102.784 83.263C109.266 87.243 128.153 98.825 144.755 109C161.357 119.175 174.941 127.725 174.941 128C174.941 128.275 161.357 136.825 144.755 147C128.153 157.175 109.266 168.757 102.784 172.737L91 179.973L91 128M128.25 144.496C142.412 135.807 154 128.384 154 128C154 127.495 108.392 98.946 101.75 95.294C101.338 95.068 101 109.785 101 128C101 146.215 101.338 160.932 101.75 160.706C102.162 160.479 114.088 153.184 128.25 144.496" />
    <glyph glyph-name="folder-link"
      unicode="&#xEA4A;"
      horiz-adv-x="256" d="M5.223 138.26C5.498 37.102 5.512 36.473 7.611 31.992C9.851 27.207 15.72 21.292 21.19 18.307C24.322 16.597 30.082 16.5 128 16.5L231.5 16.5L235.568 18.678C240.434 21.282 246.283 27.527 248.727 32.728C250.37 36.224 250.521 42.367 250.784 116.742L251.068 196.985L188.325 197.242L125.583 197.5L112.441 218.5L99.299 239.5L52.122 239.76L4.945 240.02L5.223 138.26M106.486 207.768L119.5 187.036L179.75 187.018L240 187L240 112.648L240 38.296L237.726 34.922C236.476 33.066 233.934 30.524 232.078 29.274L228.704 27L128 27L27.296 27L23.922 29.274C22.066 30.524 19.524 33.066 18.274 34.922L16 38.296L16 133.66L16 229.023L54.736 228.762L93.472 228.5L106.486 207.768M55.99 146.75C54.172 145.513 51.743 143.23 50.592 141.677C48.571 138.949 48.5 137.761 48.5 106.5C48.5 75.383 48.579 74.041 50.562 71.385C51.696 69.866 53.866 67.696 55.385 66.562C57.997 64.611 59.463 64.5 82.5 64.5C105.644 64.5 106.994 64.604 109.677 66.592C114.518 70.179 117 74.774 117 80.148L117 85L112 85C107.2 85 107 84.889 107 82.223C107 80.695 106.299 78.445 105.443 77.223C103.918 75.044 103.462 75 82.643 75C67.454 75 61.058 75.342 60.2 76.2C59.321 77.079 59 85.232 59 106.643C59 135.729 59.012 135.895 61.223 137.443C63.051 138.724 66.926 139 83.068 139C105.05 139 105.189 138.957 106.527 131.75C107.221 128.006 107.231 128 112.251 128L117.28 128L116.71 133.518C116.397 136.553 115.202 140.555 114.055 142.412C110.283 148.513 107.934 149 82.247 149C60.092 149 59.181 148.922 55.99 146.75M147.218 147.337C142.241 144.884 139.668 140.555 139.18 133.815L138.76 128L143.748 128L148.737 128L149.284 132.078C150.172 138.701 150.969 138.932 173.027 138.968C189.12 138.994 192.946 138.726 194.777 137.443C196.988 135.895 197 135.729 197 106.643C197 85.232 196.679 77.079 195.8 76.2C194.056 74.456 152.656 74.503 151.212 76.25C150.644 76.937 149.864 79.187 149.478 81.25C148.782 84.976 148.747 85 143.889 85C139.01 85 139 84.993 139 81.649C139 73.831 143.613 66.784 149.958 64.909C152.116 64.271 162.169 63.986 175.68 64.181C200.023 64.531 200.387 64.619 205.438 71.385C207.421 74.041 207.5 75.383 207.5 106.5C207.5 137.761 207.429 138.949 205.408 141.677C204.257 143.23 201.828 145.513 200.01 146.75C196.815 148.925 195.933 148.999 173.602 148.977C154.373 148.958 149.95 148.683 147.218 147.337M85 106.5L85 101L128 101L171 101L171 106.5L171 112L128 112L85 112L85 106.5" />
    <glyph glyph-name="gold"
      unicode="&#xEA4F;"
      horiz-adv-x="256" d="M123 229.5L123 208L128 208L133 208L133 229.5L133 251L128 251L123 251L123 229.5M40.976 214.475L37.559 210.949L52.773 195.735L67.987 180.521L71.729 184.262L75.471 188.004L60.498 203.002C52.263 211.251 45.27 218 44.959 218C44.647 218 42.855 216.414 40.976 214.475M195.502 203.002L180.529 188.004L184.271 184.262L188.013 180.521L203.227 195.735L218.441 210.949L215.024 214.475C213.145 216.414 211.353 218 211.041 218C210.73 218 203.737 211.251 195.502 203.002M81.508 133.024L70.85 101.049L54.759 100.774L38.668 100.5L26.436 63.816L14.204 27.132L71.102 26.816C102.396 26.642 153.604 26.642 184.898 26.816L241.796 27.132L229.564 63.816L217.332 100.5L201.241 100.774L185.15 101.049L174.492 133.024L163.833 165L128 165L92.167 165L81.508 133.024M165.035 128.403L173.74 102.307L150.87 101.625C138.292 101.25 117.707 101.25 105.127 101.625L82.255 102.307L90.626 127.403C95.23 141.207 99.211 153.07 99.473 153.766C99.845 154.754 106.124 154.973 128.139 154.766L156.329 154.5L165.035 128.403M5 128L5 123L26.5 123L48 123L48 128L48 133L26.5 133L5 133L5 128M208 128L208 123L229.5 123L251 123L251 128L251 133L229.5 133L208 133L208 128M103.123 89.124C103.466 88.781 107.593 76.912 112.295 62.75L120.843 37L74.921 37C49.665 37 29 37.328 29 37.73C29 38.131 32.935 50.293 37.745 64.758L46.49 91.056L74.495 90.402C89.898 90.042 102.781 89.467 103.123 89.124M141.749 89.75C141.494 89.062 138.417 79.838 134.912 69.25C131.407 58.662 128.297 50 128 50C127.703 50 124.593 58.662 121.088 69.25C117.583 79.838 114.506 89.062 114.251 89.75C113.893 90.713 117.048 91 128 91C138.952 91 142.107 90.713 141.749 89.75M218.264 64.73C223.069 50.281 227 38.131 227 37.73C227 37.328 206.335 37 181.079 37L135.157 37L143.913 63.25L152.668 89.5L171.084 90.034C181.213 90.328 194.006 90.666 199.514 90.784L209.528 91L218.264 64.73" />
    <glyph glyph-name="gold-coin"
      unicode="&#xEA50;"
      horiz-adv-x="256" d="M115.582 249.906C77.887 246.139 43.172 224.163 23.352 191.52C-11.697 133.795 6.739 58.411 64.48 23.352C122.205 -11.697 197.589 6.739 232.648 64.48C261.996 112.816 254.536 174.439 214.487 214.487C188.381 240.593 152.166 253.563 115.582 249.906M144.672 238.504C206.069 228.546 248.245 171.384 238.504 111.328C228.546 49.931 171.384 7.755 111.328 17.496C49.931 27.454 7.755 84.616 17.496 144.672C27.453 206.067 84.619 248.244 144.672 238.504M74.738 201.34C72.682 199.877 71 198.382 71 198.017C71 197.653 73.695 193.675 76.989 189.179L82.977 181.003L86.951 183.751C89.136 185.263 90.941 186.847 90.962 187.27C91.008 188.193 79.722 203.937 78.988 203.974C78.707 203.988 76.794 202.803 74.738 201.34M170.75 195.994C167.588 191.619 165.017 187.694 165.038 187.27C165.059 186.847 166.864 185.263 169.049 183.751L173.023 181.003L179.011 189.179C182.305 193.675 185 197.663 185 198.041C185 198.722 177.803 204.024 176.946 203.974C176.701 203.96 173.912 200.369 170.75 195.994M117.845 175.203L108.328 155.407L89.414 152.654C79.011 151.14 68.989 149.64 67.143 149.319L63.786 148.737L79.62 132.88L95.455 117.022L91.756 95.316C89.721 83.378 88.221 73.445 88.423 73.244C88.625 73.042 97.316 77.405 107.738 82.939C118.159 88.472 127.255 93 127.951 93C128.647 93 137.765 88.472 148.214 82.939C158.662 77.405 167.335 73.017 167.487 73.189C167.639 73.36 166.141 83.294 164.157 95.264L160.551 117.028L176.383 132.882L192.214 148.737L188.857 149.319C187.011 149.64 177.069 151.129 166.765 152.628L148.03 155.354L138.339 175.177C133.009 186.08 128.359 195 128.005 195C127.651 195 123.079 186.092 117.845 175.203M134.924 158.154L141.286 145.307L155.143 143.481C162.764 142.477 169 141.403 169 141.095C169 140.786 164.507 136.026 159.016 130.516L149.031 120.497L151.028 108.499C152.126 101.899 153.25 95.496 153.526 94.269C153.974 92.281 152.613 92.771 141.014 98.769L128 105.5L114.986 98.769C103.387 92.771 102.026 92.281 102.474 94.269C102.75 95.496 103.874 101.899 104.972 108.499L106.969 120.497L96.984 130.516C91.493 136.026 87 140.786 87 141.095C87 141.403 93.236 142.477 100.857 143.481L114.714 145.307L121.076 158.154C124.575 165.219 127.691 171 128 171C128.309 171 131.425 165.219 134.924 158.154M49.5 108.152C45.1 106.692 41.298 105.274 41.05 104.999C40.803 104.725 41.205 102.339 41.944 99.698C42.96 96.07 43.665 95.041 44.829 95.488C45.675 95.813 50.274 97.248 55.048 98.677L63.728 101.275L62.173 106.138C61.156 109.318 60.079 110.966 59.059 110.903C58.202 110.849 53.9 109.611 49.5 108.152M193.827 106.138L192.272 101.275L200.952 98.677C205.726 97.248 210.325 95.813 211.171 95.488C212.321 95.047 213.016 95.987 213.916 99.198C214.578 101.564 214.98 103.946 214.81 104.491C214.523 105.409 198.825 110.961 196.441 110.988C195.858 110.995 194.682 108.812 193.827 106.138M123 48L123 37L128 37L133 37L133 48L133 59L128 59L123 59L123 48" />
    <glyph glyph-name="hammer"
      unicode="&#xEA53;"
      horiz-adv-x="256" d="M144.999 211.499L109.509 175.998L126.753 158.754L143.998 141.509L154.742 152.253L165.486 162.997L186.741 141.759L207.996 120.522L222.5 135L237.004 149.479L215.766 170.735L194.527 191.991L204.999 202.499L215.471 213.007L198.497 230.003C189.161 239.352 181.29 247 181.006 247C180.722 247 164.519 231.025 144.999 211.499M191.009 222.491L200.478 212.982L172.241 184.746L144.004 156.509L134.259 166.254L124.513 176L152.5 204C167.893 219.4 180.724 232 181.013 232C181.303 232 185.801 227.721 191.009 222.491M51.739 188.245L48.029 184.446L63.013 169.487L77.996 154.529L81.738 158.271L85.479 162.013L70.464 177.028L55.448 192.043L51.739 188.245M204.769 166.731L222.016 149.463L215 142.5L207.984 135.538L190.499 153.001L173.014 170.464L179.73 177.232C183.424 180.954 186.688 184 186.984 184C187.28 184 195.283 176.229 204.769 166.731M27 128L27 123L48 123L69 123L69 128L69 133L48 133L27 133L27 128M5.44 94.829C6.836 82.485 12.658 72.458 23.087 64.433C33.826 56.169 48.761 51.037 68.31 48.893L80 47.611L80 26.305L80 5L149.5 5L219 5L219 11.033C219 25.251 230.749 37 244.967 37L251 37L251 69L251 101L127.871 101L4.742 101L5.44 94.829M80 74.857L80 58.713L70.981 59.394C52.523 60.787 35.45 66.916 26.894 75.219C22.583 79.402 17 87.572 17 89.696C17 90.74 23.268 91 48.5 91L80 91L80 74.857M240 69L240 47L237.75 46.999C233.696 46.998 223.595 41.328 218.806 36.365C213.968 31.351 209.027 22.214 209.01 18.25L209 16L150 16L91 16L91 53.5L91 91L165.5 91L240 91L240 69" />
    <glyph glyph-name="icons-vip-2"
      unicode="&#xEA56;"
      horiz-adv-x="251.50877192982455" d="M15.719298245614 242.9978049122807H235.7894736842105C237.9596350877193 242.9978049122807 239.7192982456141 241.2383663157895 239.7192982456141 239.0679803508772V18.9978947368421C239.7192982456141 16.8272842105263 237.9596350877193 15.0680701754386 235.7894736842105 15.0680701754386H15.719298245614C13.5489122807018 15.0680701754386 11.7894736842105 16.8272842105263 11.7894736842105 18.9978947368421V239.0679803508772C11.7894736842105 241.2383663157895 13.5489122807018 242.9978049122807 15.719298245614 242.9978049122807zM0 239.0679803508772C0 247.7495242105263 7.0377543859649 254.7872785964913 15.719298245614 254.7872785964913H235.7894736842105C244.4710175438597 254.7872785964913 251.5087719298246 247.7495242105263 251.5087719298246 239.0679803508772V18.9978947368421C251.5087719298246 10.316350877193 244.4710175438597 3.2785964912281 235.7894736842105 3.2785964912281H15.719298245614C7.0377543859649 3.2785964912281 0 10.316350877193 0 18.9978947368421V239.0679803508772zM69.4977122807018 104.5831859649123L47.2248140350877 169.7603368421053H34.1738442105263L62.9719578947368 89.7347368421053H76.9217122807017L105.7199157894737 169.7603368421053H92.6688561403509L70.3964070175439 104.5831859649123H69.4977122807018zM137.0529684210526 89.7347368421053V169.7603368421053H124.978750877193V89.7347368421053H137.0529684210526zM162.3394807017544 169.7603368421053V89.7347368421053H174.413698245614V117.8686877192982H190.8250947368421C197.0247859649123 117.8686877192982 202.1699368421053 119.0018245614035 206.259649122807 121.2680982456141C210.3754105263158 123.5604210526316 213.4492070175439 126.6607157894737 215.4814877192982 130.5680842105263C217.5393684210527 134.501501754386 218.5683087719298 138.929852631579 218.5683087719298 143.8535859649123C218.5683087719298 148.7508210526316 217.5523929824561 153.1531228070176 215.5205614035088 157.0609403508772C213.4882807017544 160.9943578947368 210.4275087719298 164.094203508772 206.3377964912281 166.3604771929825C202.2480842105263 168.6272 197.0899087719298 169.7603368421053 190.8641684210526 169.7603368421053H162.3394807017544zM174.413698245614 128.1064421052632H189.7310315789474C193.664449122807 128.1064421052632 196.8554666666667 128.7837192982456 199.3040842105263 130.1382736842105C201.753150877193 131.5188771929825 203.5505403508772 133.3944140350877 204.696701754386 135.7648842105263C205.8428631578947 138.1353543859649 206.4159438596491 140.8318877192983 206.4159438596491 143.8535859649123C206.4159438596491 146.8752842105263 205.8428631578947 149.5583438596492 204.696701754386 151.9027649122807C203.5505403508772 154.2476350877193 201.7401263157895 156.084098245614 199.2650105263158 157.412603508772C196.8163929824561 158.7411087719298 193.586301754386 159.4053614035088 189.5747368421053 159.4053614035088H174.413698245614V128.1064421052632z" />
    <glyph glyph-name="increase-font-size"
      unicode="&#xEA59;"
      horiz-adv-x="256" d="M5 234.5L5 229L53 229L101 229L101 122.5L101 16L106.5 16L112 16L112 122.5L112 229L160 229L208 229L208 234.5L208 240L106.5 240L5 240L5 234.5M197 154.5L197 133L176 133L155 133L155 128L155 123L176 123L197 123L197 101.5L197 80L202.5 80L208 80L208 101.5L208 123L229.5 123L251 123L251 128L251 133L229.5 133L208 133L208 154.5L208 176L202.5 176L197 176L197 154.5" />
    <glyph glyph-name="info"
      unicode="&#xEA5A;"
      horiz-adv-x="256" d="M122.353 238.074C113.542 232.701 117.661 219 128.088 219C135.475 219 140.479 226.525 137.628 233.348C136.078 237.058 131.725 240.003 127.8 239.996C126.535 239.994 124.084 239.129 122.353 238.074M123 101.5L123 16L128 16L133 16L133 101.5L133 187L128 187L123 187L123 101.5" />
    <glyph glyph-name="jewel"
      unicode="&#xEA5B;"
      horiz-adv-x="256" d="M36.241 219.741L16 199.482L16 127.982L16 56.482L36.259 36.241L56.518 16L128.018 16L199.518 16L219.759 36.259L240 56.518L240 128.018L240 199.518L219.741 219.759L199.482 240L127.982 240L56.482 240L36.241 219.741M174.753 210.527L162.5 192.053L128 192.053L93.5 192.053L81.247 210.527L68.995 229L128 229L187.005 229L174.753 210.527M70.898 206.653L83.821 187.305L76.258 179.742L68.695 172.179L49.213 185.192L29.731 198.205L43.602 212.102C51.231 219.746 57.586 226 57.724 226C57.862 226 63.79 217.294 70.898 206.653M212.398 212.102L226.269 198.205L206.787 185.192L187.305 172.179L179.742 179.742L172.179 187.305L185.102 206.653C192.21 217.294 198.138 226 198.276 226C198.414 226 204.769 219.746 212.398 212.102M63.947 128L63.947 93.5L45.473 81.247L27 68.995L27 128L27 187.005L45.473 174.753L63.947 162.5L63.947 128M229 127.997L229 68.995L210.527 81.247L192.053 93.5L192.053 128L192.053 162.5L210.277 174.683C220.299 181.384 228.613 186.896 228.75 186.933C228.887 186.97 229 160.449 229 127.997M172.23 172.271L181 163.542L181 128L181 92.458L172.23 83.729L163.46 75L128 75L92.54 75L83.77 83.729L75 92.458L75 127.959L75 163.46L83.729 172.23L92.458 181L127.959 181L163.46 181L172.23 172.271M70.814 49.222L57.795 29.731L43.916 43.584C36.01 51.474 30.412 57.812 30.91 58.31C31.39 58.79 40.044 64.721 50.141 71.49L68.5 83.798L76.167 76.255L83.833 68.713L70.814 49.222M226 57.724C226 57.586 219.746 51.231 212.102 43.602L198.205 29.731L185.192 49.213L172.179 68.695L179.742 76.258L187.305 83.821L206.653 70.898C217.294 63.79 226 57.862 226 57.724M174.753 45.473L187.005 27L128 27L68.995 27L81.247 45.473L93.5 63.947L128 63.947L162.5 63.947L174.753 45.473" />
    <glyph glyph-name="leave"
      unicode="&#xEA5C;"
      horiz-adv-x="256" d="M5.024 155.75L5.048 66.5L47.138 39.5C70.287 24.65 89.626 12.35 90.114 12.167C90.615 11.978 91 23.174 91 37.917L91 64L120 64L149 64L149 90.5L149 117L144 117L139 117L139 96L139 75L115 75L91 75L91 134.918L91 194.836L61.75 213.574C45.663 223.879 31.612 232.916 30.527 233.656C28.865 234.789 37.221 235 83.777 235L139 235L139 208L139 181L144 181L149 181L149 213L149 245L77 245L5 245L5.024 155.75M49.5 208.773L79.5 189.467L79.756 110.298L80.012 31.129L48.006 51.667L16 72.204L16 151.137C16 226.024 16.09 230.019 17.75 229.074C18.712 228.526 33 219.391 49.5 208.773M192.978 195.478L189.565 191.956L208.022 173.478L226.48 155L174.74 155L123 155L123 149.5L123 144L175.24 144L227.48 144L208.721 125.221L189.962 106.443L193.756 102.739L197.549 99.034L222.517 124.017L247.485 149L222.5 174C208.758 187.75 197.262 199 196.954 199C196.645 199 194.856 197.415 192.978 195.478" />
    <glyph glyph-name="left-arrow"
      unicode="&#xEA5D;"
      horiz-adv-x="256" d="M124.481 184.981L67.507 128L124.481 71.019L181.455 14.038L185.25 17.744L189.044 21.449L135.847 74.653L82.649 127.858L129.574 175.558C155.384 201.793 179.315 225.806 182.755 228.92L189.011 234.584L185.233 238.273L181.455 241.962L124.481 184.981" />
    <glyph glyph-name="log-out"
      unicode="&#xEA60;"
      horiz-adv-x="256" d="M91 245.568L91 240.046L149.75 239.773L208.5 239.5L211.564 237.199C213.25 235.934 215.5 233.459 216.564 231.699C218.444 228.592 218.5 225.616 218.5 128L218.5 27.5L216.149 23.719C214.856 21.639 212.062 19.052 209.939 17.969C206.232 16.078 203.803 16 148.54 16L91 16L91 10.462L91 4.924L149.75 5.212C207.213 5.494 208.601 5.547 213.089 7.623C219 10.356 224.667 16.057 227.087 21.703C228.929 26.001 229 29.935 229 128C229 225.38 228.918 230.024 227.124 234.167C224.691 239.787 218.822 245.725 213.07 248.386C208.607 250.451 207.129 250.507 149.75 250.795L91 251.09L91 245.568M54.982 158.482L24.512 128L54.982 97.518L85.452 67.036L89.246 70.74L93.04 74.445L68.778 98.722L44.515 123L118.258 123L192 123L192 128L192 133L118.258 133L44.515 133L68.778 157.278L93.04 181.555L89.246 185.26L85.452 188.964L54.982 158.482" />
    <glyph glyph-name="mail"
      unicode="&#xEA65;"
      horiz-adv-x="256" d="M22.825 227.6C16.832 225.459 11.342 220.397 8.303 214.208L5.5 208.5L5.5 128L5.5 47.5L8.303 41.792C11.342 35.603 16.832 30.541 22.825 28.4C28.227 26.471 227.773 26.471 233.175 28.4C239.168 30.541 244.658 35.603 247.697 41.792L250.5 47.5L250.5 128L250.5 208.5L247.697 214.208C244.658 220.397 239.168 225.459 233.175 227.6C227.773 229.529 28.227 229.529 22.825 227.6M227.424 218.132C230.219 217.528 228.101 215.455 179.538 171.25C151.592 145.812 128.422 125 128.049 125C127.676 125 104.486 145.812 76.516 171.25C27.94 215.427 25.792 217.528 28.58 218.132C32.394 218.957 223.604 218.957 227.424 218.132M76.36 157.116C104.333 131.752 127.586 111 128.034 111C128.481 111 153.294 133.23 183.174 160.4C218.4 192.432 237.852 209.467 238.5 208.851C239.145 208.238 239.599 180.166 239.778 129.7C240.093 41.362 240.402 45.28 232.72 40.196L228.646 37.5L128.073 37.5L27.5 37.5L23.632 39.905C21.248 41.386 19.05 43.88 17.904 46.405C16.143 50.283 16.043 54.598 16.022 127.685C16.007 178.669 16.352 205.797 17.038 207.601L18.076 210.331L21.788 206.782C23.83 204.83 48.387 182.48 76.36 157.116" />
    <glyph glyph-name="logo-aba"
      unicode="&#xEA66;"
      horiz-adv-x="608" d="M323 78.024C319.76 78.024 315.488 78.024 306.136 78.024H277.1280000000001V120.464H311.336C311.8640000000001 120.48 312.48 120.488 313.104 120.488C318.568 120.488 323.888 119.88 329.008 118.736L328.528 118.824H329.008C338.672 116.672 345.792 108.176 345.792 98.008C345.792 97.92 345.792 97.84 345.792 97.752L345.792 97.768C345.792 85.424 338.16 78.864 323.016 78.184zM277.128 178.688H312.376C321.368 178.688 329.92 178.688 335.152 174.688C338.48 172.128 340.6 168.144 340.6 163.664C340.6 163.44 340.592 163.208 340.584 162.984L340.584 163.016C340.592 162.832 340.6 162.616 340.6 162.4C340.6 157.584 338.464 153.256 335.096 150.328L335.08 150.312C329.368 145.6 319.9359999999999 145.6 309.9439999999999 145.6H277.1359999999999zM416.552 204.104H392.216L360.248 129.256C358.528 130.792 356.632 132.224 354.632 133.504L354.456 133.616C362.904 139.976 368.312 149.984 368.312 161.256C368.312 161.768 368.296 162.28 368.2800000000001 162.784L368.288 162.712C368.296 162.88 368.296 163.08 368.296 163.272C368.296 175.12 363.136 185.768 354.944 193.088L354.904 193.12C342.312 203.952 326.256 203.952 315.584 203.952H250.048V121.592L212.848 203.952H188.552L123.656 52.096H154.664L200.744 162.712L249.576 52.096H298.648C321.384 52.096 326.624 52.096 333.976 53.136C352.48 56.088 362.224 65.48 367.304 75.112V75.112V75.112Q368.144 76.792 368.864 78.464L372.864 87.456L404.112 162.504L452.944 51.888H484.6319999999999zM231.448 88.776L194.32 110.072V67.432L231.448 88.776zM435.056 88.816L398.456 110.072V67.552L435.056 88.808zM449.88 186.2C448.376 184.696 446.296 183.768 444.008 183.768S439.64 184.696 438.136 186.2L438.136 186.2C436.656 187.648 435.736 189.672 435.736 191.912C435.736 191.968 435.736 192.032 435.736 192.088L435.736 192.08C435.736 196.648 439.44 200.352 444.008 200.352V200.352C448.576 200.328 452.272 196.616 452.272 192.04C452.272 189.768 451.36 187.704 449.88 186.2L449.88 186.2zM438.968 197.112C437.6880000000001 195.816 436.8880000000001 194.024 436.8880000000001 192.056S437.68 188.304 438.968 187L438.968 187C440.2000000000001 185.688 441.944 184.88 443.88 184.88C443.92 184.88 443.968 184.88 444.008 184.88L444 184.88C444.032 184.88 444.064 184.88 444.096 184.88C448.064 184.88 451.288 188.096 451.288 192.072S448.064 199.264 444.096 199.264C442.08 199.264 440.264 198.44 438.96 197.112L438.96 197.112zM443.848 196.672C443.9360000000001 196.68 444.048 196.68 444.152 196.68C444.928 196.68 445.672 196.56 446.376 196.344L446.32 196.36C447.152 196.008 447.728 195.2 447.728 194.256C447.728 194.184 447.7200000000001 194.112 447.7200000000001 194.032L447.7200000000001 194.04C447.728 194 447.728 193.952 447.728 193.904C447.728 193.216 447.384 192.608 446.848 192.248L446.8400000000001 192.24C446.4640000000001 192.016 446.016 191.856 445.5360000000001 191.8L445.5200000000001 191.8C446.1600000000001 191.736 446.7120000000001 191.408 447.0720000000001 190.928L447.0800000000001 190.92C447.4000000000001 190.528 447.5920000000001 190.032 447.6 189.48V188.16C447.5920000000001 188.088 447.5920000000001 188 447.5920000000001 187.92S447.6 187.752 447.6 187.664L447.6 187.672H446.36V188.752C446.3760000000001 188.848 446.384 188.96 446.384 189.064C446.384 189.776 446.048 190.416 445.528 190.824L445.5200000000001 190.832C445.0560000000001 191.04 444.5120000000001 191.16 443.9360000000001 191.16C443.8560000000001 191.16 443.7840000000001 191.16 443.704 191.152L443.712 191.152H442.352V187.552H440.752V196.744zM445.56 195.232C445.088 195.44 444.544 195.568 443.968 195.568C443.856 195.568 443.7440000000001 195.56 443.632 195.552L443.648 195.552H442.3680000000001V192.272H443.8480000000001C444.0800000000001 192.232 444.3360000000001 192.208 444.6080000000001 192.208S445.1360000000001 192.232 445.3920000000001 192.272L445.3680000000001 192.264C445.9120000000001 192.448 446.2960000000001 192.952 446.2960000000001 193.552C446.2960000000001 193.608 446.2880000000001 193.656 446.2880000000001 193.712L446.2880000000001 193.704C446.2960000000001 193.752 446.2960000000001 193.808 446.2960000000001 193.872C446.2960000000001 194.352 446.0560000000001 194.768 445.6880000000001 195.024L445.6800000000001 195.032z" />
    <glyph glyph-name="logo-BBDO"
      unicode="&#xEA67;"
      horiz-adv-x="816" d="M620.784 175.312C608.648 187.344 591.52 194.744 571.744 194.744C551.984 194.752 534.76 187.248 522.544 175.144C514.944 167.616 509.272 158.312 506.064 147.944C502.92 158.04 497.36 166.992 489.824 174.168C477.704 185.728 460.528 192.632 440.48 192.624H389.432V115.992C386.056 122.88 380.24 127.824 372.92 131.36C380.152 136.752 385.864 145.048 385.8 157.432V157.776C385.832 168.264 381.488 177.248 373.776 183.312C366.08 189.384 355.224 192.624 342.152 192.624H281.928V115.992C278.552 122.88 272.736 127.824 265.4239999999999 131.36C272.6479999999999 136.752 278.3599999999999 145.048 278.296 157.432V157.776C278.3279999999999 168.256 273.992 177.248 266.272 183.304C258.5759999999999 189.392 247.72 192.616 234.64 192.616H174.4239999999999V63.384H236.056C250.36 63.392 262.4799999999999 66.248 271.2559999999999 72.368C275.9199999999999 75.6 279.544 79.816 281.928 84.856V63.384H343.568C357.8719999999999 63.392 369.9919999999999 66.24 378.776 72.368C383.432 75.592 387.064 79.816 389.44 84.856V63.392H440.5199999999999C460.5759999999999 63.392 477.7359999999999 70.392 489.8559999999999 82.032C497.2959999999999 89.168 502.8079999999999 98.048 505.9599999999999 108.024C509.1199999999999 97.584 514.7679999999999 88.232 522.376 80.696C534.512 68.672 551.648 61.264 571.408 61.272H571.44C591.2 61.272 608.416 68.776 620.6320000000001 80.872S640.096 109.696 640.0880000000001 128V128.352C640.0960000000001 146.656 632.9440000000001 163.296 620.792 175.32zM206.728 162.944H230.576C235.9280000000001 162.96 239.784 161.848 242.064 160.192C244.32 158.52 245.384 156.488 245.432 153.2V152.848C245.36 149.08 244.136 147.096 241.5360000000001 145.384C238.8960000000001 143.712 234.4960000000001 142.728 228.8160000000001 142.736H206.728V162.952zM252.312 103.496C252.24 99.68 251.024 97.56 248.504 95.808C245.9520000000001 94.088 241.6960000000001 93.024 236.0480000000001 93.04H206.736V114.304H235.1600000000001C241.784 114.32 246.2160000000001 113.048 248.7280000000001 111.256C251.2240000000001 109.448 252.2560000000001 107.28 252.3120000000001 103.848V103.496zM314.2320000000001 162.944H338.0800000000001C343.4240000000001 162.952 347.2880000000001 161.84 349.5600000000001 160.184C351.8240000000001 158.52 352.8880000000001 156.48 352.9360000000001 153.2V152.856C352.8560000000001 149.072 351.6320000000001 147.096 349.0240000000001 145.384C346.3920000000001 143.712 341.9920000000001 142.728 336.3120000000001 142.752H314.2160000000001V162.952zM359.824 103.504C359.76 99.68 358.528 97.568 356.016 95.808C353.464 94.088 349.216 93.032 343.56 93.048H314.24V114.312H342.664C349.288 114.328 353.72 113.048 356.232 111.264C358.72 109.456 359.768 107.296 359.824 103.856V103.512zM474.728 127.648C474.568 107.216 461.304 93.912 440.48 93.76H422.456V162.248H440.48C461.256 162.096 474.568 148.448 474.728 128V127.656zM605.824 127.648C605.728 107.888 591.9359999999999 92.208 571.7439999999999 92.16C551.5919999999999 92.192 537.3919999999999 108.272 537.328 127.984V128.336C537.424 148.096 551.216 163.776 571.4 163.824C591.552 163.8 605.76 147.712 605.832 127.984V127.64z" />
    <glyph glyph-name="logo-amc"
      unicode="&#xEA68;"
      horiz-adv-x="512" d="M138.072 120.64C129.144 119.712 117.032 116.728 117.032 106.104C117.032 98.344 124.736 94.808 135.632 94.808C148.28 94.808 158.304 100.944 161.032 106.944C162.448 109.944 163.288 112.944 163.288 115.944V121.584C163.288 121.584 157.104 121.584 156.304 121.584C152.656 121.592 146.976 121.48 138.072 120.632zM47.752 224V32H464.248V224H47.752zM186.232 77.064H164.232L163.632 84.904C158.232 80.528 144.352 74.728 130.072 74.728C107.856 74.728 93.424 91.64 93.424 105.92C93.424 133.36 121.728 140.088 156.064 140.088C156.16 140.088 163.104 140.088 163.104 140.088S163.152 141.96 163.152 142.44C163.152 146.04 161.312 161.312 142.568 161.312C126.888 161.312 122.144 154.328 120.448 148.088H97.36C97.36 155.84 103.376 181.296 142.176 181.296C174.92 181.296 186.24 163.648 186.24 132.408V77.072zM286.872 77.064V151.648L266.1520000000001 77.064H244.1760000000001L223.5200000000001 151.648V77.064H199.6400000000001V178.824H236.1920000000001C236.1920000000001 178.824 253.4560000000001 113.736 255.1600000000001 105.68L274.1600000000001 178.824H310.68L310.6960000000001 77.064H286.8800000000001zM370.7440000000001 74.712C341.9040000000001 74.712 321.8 97.648 321.8 127.992C321.8 159.68 342.0560000000001 181.312 370.7440000000001 181.312C394.752 181.312 413.656 164.296 418.4960000000001 140.264H395.4640000000001C391.5840000000001 152 382.2240000000001 159.936 370.7360000000001 159.936C355.552 159.936 344.1200000000001 146.176 344.1200000000001 128S355.5520000000001 96.088 370.7360000000001 96.088C382.3120000000001 96.088 391.7040000000001 104.048 395.504 115.968H418.528C413.7920000000001 91.8 394.856 74.712 370.7440000000001 74.712z" />
    <glyph glyph-name="logo-benchmade-2"
      unicode="&#xEA69;"
      horiz-adv-x="512" d="M296.4 92.696C294.296 92.248 293.296 90.848 293.4 89.744C293.448 88.992 294.096 88.144 295.6 88.096C303.496 87.744 307.552 82.592 311.904 77.144C314.3519999999999 74.096 316.856 70.896 320.104 68.592L322.5519999999999 66.792C326.5519999999999 63.744 328.9999999999999 61.944 332.152 65.592C333.904 67.64 334.5039999999999 70.288 334.5039999999999 72.992C334.5039999999999 78.04 332.3519999999999 83.144 331.104 84.544C321.8 94.992 298.704 93.24 296.4079999999999 92.696zM289.248 83.304C288.552 83.104 288.048 82.608 287.848 81.8C287 78.2 292.4000000000001 69.048 296 65.8C300.504 61.8 306.4 46.152 308.104 41.448C309.504 37.496 311.952 32.944 314.152 33.048C315.048 33.096 315.704 33.848 316.048 35.352L316.896 38.352C318.7440000000001 44.448 321.5440000000001 53.704 317.5920000000001 56.8C314.8400000000001 58.952 309.2400000000001 64.4 304.7440000000001 68.752L298.7440000000001 74.448L296.192 77.848C294.24 80.752 292.04 84.096 289.24 83.296zM122.096 235.448V235.448V235.448zM123.6 239.352C122.648 238.656 122.2 237.456 122.152 235.456C122.152 235.456 122.152 235.408 122.152 235.408C122.152 231.808 132.104 214.16 134.552 213.456L135.504 213.208C148.304 209.808 150.6 208.456 150.856 207.96C151.304 206.856 152.76 205.408 153.856 205.76C155.304 206.16 154.904 208.864 154.76 209.76C153.312 219.112 132.808 238.208 128.256 239.512C126.056 240.16 124.608 240.112 123.608 239.36zM136.096 204.2C135.048 203.648 134.944 202.096 134.848 200.904C134.752 199.608 136.2 195.752 138.448 189.952L141.448 181.752C142.496 178.2 149.048 178.848 154.296 179.4C156.744 179.648 159.096 179.904 159.848 179.552C161.8 178.704 173.848 174.704 175.848 175.6C176.248 175.8 176.448 176.2 176.496 176.896C176.592 179.848 172.696 189.544 169.248 191.4C166.448 192.904 165.848 193 164.152 193.152L162 193.504C158.352 194.056 142.448 201.808 139.304 203.608C137.856 204.408 136.856 204.608 136.1040000000001 204.208zM188.304 182.152C187.704 181.2 188.904 179.4 189.808 178.504V178.504C191.504 176.8 209.904 152.504 210.312 143.904C210.464 139.904 210.96 137.952 213.264 137.104C213.264 137.104 213.712 136.904 213.712 136.904C215.664 136.152 218.616 135.056 220.96 137.456C223.264 139.808 220.608 144.504 218.264 148.704L217.416 150.208C216.216 152.456 214.064 155.056 211.768 157.856L205.52 166.104C201.216 172.256 193.12 181.152 190.424 182.256C189.328 182.704 188.624 182.656 188.328 182.16zM321.448 182.152C321.096 182.656 320.4 182.704 319.4 182.304C316.704 181.208 308.6 172.304 304.296 166.152L298.048 157.904C295.7440000000001 155.152 293.6 152.504 292.4 150.256L291.552 148.752C289.2 144.552 286.552 139.8 288.856 137.504C291.2079999999999 135.104 294.1599999999999 136.208 296.104 136.952C296.104 136.952 296.5519999999999 137.104 296.5519999999999 137.152C298.8559999999999 138 299.3519999999999 139.952 299.5039999999999 143.952C299.8559999999999 152.552 318.3039999999999 176.848 320.0079999999999 178.552V178.552C320.904 179.4 322.1119999999999 181.2 321.4559999999999 182.152zM160.648 168.704C159.296 168.256 158.552 167.552 158.296 166.656C157.744 164.608 160.144 161.952 162.848 158.856C165.496 155.856 168.544 152.456 168.896 149.456C169.248 146.304 173.2 144.208 176.4 143.008C183.848 140.208 195.648 139.16 198.8 142.008C200.8 143.808 201.352 144.56 199.704 148.608C196.752 155.808 189.104 156.312 184.008 156.656L181.36 156.856C179.712 157.056 177.312 159.304 174.808 161.656C170.456 165.808 165.56 170.456 160.656 168.704zM178.152 83.904C176.248 81.808 172.2 70.704 177.152 64.952C180.304 61.304 182.848 63.256 186.752 66.152L189.2 67.952C192.504 70.304 195 73.456 197.4 76.504C201.704 81.952 205.8 87.104 213.704 87.456C215.208 87.504 215.8 88.36 215.904 89.104C216 90.2 215 91.552 212.904 92.056C208.856 92.96 186.952 93.752 178.152 83.904zM213.848 78.048L211.248 74.648L205.4 69.096C200.848 64.696 195.152 59.192 192.4 57.048C188.448 53.896 191.248 44.696 193.096 38.6L193.944 35.6C194.344 34.096 194.944 33.352 195.848 33.296C198.048 33.2 200.448 37.744 201.896 41.696C203.096 45.048 209.296 61.848 213.992 66.048C217.64 69.296 222.992 78.4 222.144 82.048C221.944 82.848 221.496 83.352 220.744 83.552C217.992 84.304 215.792 81 213.84 78.048zM381.104 239C376.552 237.696 356.104 218.6 354.6 209.248C354.448 208.352 354.048 205.696 355.496 205.248C356.648 204.896 358.048 206.352 358.496 207.448C358.744 207.952 361.048 209.248 373.848 212.648L374.848 212.896C377.296 213.6 387.4 231.448 387.248 234.896C387.2 236.848 386.6959999999999 238.096 385.8 238.744C384.752 239.592 383.248 239.64 381.104 238.992zM374.504 200.4V200.4V200.4V200.4zM370.048 203.104C366.8 201.256 351 193.6 347.352 193L345.2 192.752C343.504 192.552 342.952 192.504 340.096 191C336.648 189.096 332.7440000000001 179.4 332.848 176.448C332.848 175.8 333.096 175.352 333.4960000000001 175.152C335.4960000000001 174.248 347.5440000000001 178.248 349.4960000000001 179.104C350.2480000000001 179.456 352.6 179.2 355.0480000000001 178.952C360.2960000000001 178.4 366.8480000000001 177.704 367.8960000000001 181.304L370.8480000000001 189.4C373.0480000000001 195.048 374.4960000000001 198.904 374.4960000000001 200.296C374.4960000000001 200.344 374.4960000000001 200.4 374.4960000000001 200.448C374.3920000000001 201.648 374.2960000000001 203.2 373.2480000000001 203.744C372.4960000000001 204.096 371.4480000000001 203.896 370.0480000000001 203.096zM335.352 161.2C332.848 158.848 330.504 156.6 328.848 156.4C328.848 156.4 326.2 156.152 326.2 156.152C321.152 155.8 313.4479999999999 155.304 310.5039999999999 148.104C308.8559999999999 144.056 309.3999999999999 143.256 311.2559999999999 141.6C314.5039999999999 138.696 326.3039999999999 139.696 333.7039999999999 142.504C336.9519999999999 143.704 340.8559999999999 145.856 341.2559999999999 148.952C341.6079999999999 151.952 344.6559999999999 155.352 347.3039999999999 158.352C350.056 161.448 352.4079999999999 164.104 351.904 166.152C351.656 167.104 350.904 167.752 349.552 168.248C344.6 169.952 339.704 165.296 335.352 161.2zM403.6960000000001 252.152C393.2480000000001 263.4 361.5920000000001 246.248 361.2960000000001 246.056C361.2960000000001 246.056 360.6960000000001 245.704 360.6960000000001 245.704C353.048 241.408 344.3920000000001 236.504 331.144 225.4C312.944 210.2 293.544 180 280.7440000000001 160.048C276.3440000000001 153.248 271.6960000000001 143.544 268.7440000000001 143.544C265.992 143.696 265.048 148.192 265.048 148.192S264.248 155.44 262.448 157.592C261.648 158.592 259.248 161.344 254.696 161.344S247.448 158.296 246.744 157.248C244.744 154.344 244.992 143.544 241.144 143.544C237.992 143.544 233.144 153.248 228.744 160.096C215.944 180.048 196.544 210.2 178.344 225.448C165.04 236.552 156.392 241.448 148.792 245.752L148.192 246.104C147.888 246.256 116.24 263.456 105.792 252.2C100.496 246.504 104.392 236.048 107.544 227.696L108.696 224.544L111.296 217.696C115.944 205.648 125.592 180.648 127.296 168.4C127.296 168.4 127.496 167.104 128.096 166.304C129.4 164.704 130.544 164.4 130.544 164.4C140.048 161.2 147.192 154.896 147.496 149.448C147.592 147.696 145.248 146.544 140.296 144.8C136.2 143.4 131.144 141.6 130.896 136.504C130.896 136.152 130.896 135.704 130.896 135.304H142.696C143 135.4 143.296 135.504 143.544 135.6C148.392 137.304 157.24 140.4 157.24 149.2C157.24 149.448 157.24 149.752 157.24 150C156.592 160.8 146.144 168.648 136.392 172.6C133.744 186.4 125.192 208.752 120.392 221.152L117.944 227.656L116.696 231.056C115.696 233.704 112.896 241.152 112.896 244.504C112.896 245.008 112.944 245.408 113.096 245.656C115.296 248.008 131.448 244.304 143.448 237.504C143.448 237.504 144.048 237.152 144.048 237.152C151.648 232.848 159.552 228.4 172.144 217.848C189.192 203.6 208.048 174.2 220.544 154.744C224.448 148.696 227.192 144.448 229.296 141.392C231.6960000000001 138.64 235.944 135.888 240.296 135.888C249.496 135.888 250.896 139.44 254.6 139.44S261.1040000000001 135.488 268.896 135.488C273.4960000000001 135.488 277 137.336 279.296 140.088C281.496 143.136 284.448 147.736 288.944 154.688C301.4480000000001 174.136 320.344 203.584 337.392 217.84C349.992 228.392 357.896 232.84 365.496 237.144L366.096 237.496C378.048 244.296 394.2 247.944 396.544 245.448C396.648 245.2 396.696 244.896 396.696 244.448C396.696 241.296 393.848 233.648 392.848 230.944L391.6 227.592L389.2 221.192C384.4 208.744 375.8 186.344 373.152 172.488C363.4 168.536 352.952 160.688 352.304 149.888C352.304 149.592 352.256 149.336 352.256 149.04C352.256 140.24 361.152 137.136 366.008 135.44C366.256 135.344 366.56 135.24 366.904 135.144H378.704C378.704 135.592 378.704 135.992 378.704 136.344C378.456 141.44 373.3520000000001 143.248 369.3040000000001 144.64C364.3520000000001 146.344 362.0000000000001 147.488 362.1040000000001 149.24C362.456 154.744 369.552 161.04 379.0560000000001 164.24C379.0560000000001 164.24 380.5600000000001 164.536 381.408 165.944C382.3040000000001 167.344 382.3040000000001 168.192 382.3040000000001 168.192C384.0000000000001 180.488 393.704 205.544 398.3040000000001 217.592L400.8560000000001 224.344C400.8560000000001 224.344 402.0080000000001 227.448 402.0080000000001 227.448C405.112 236 409.0080000000001 246.448 403.7040000000001 252.144zM338.896 84.696C337.648 82.392 337.2 80.344 337.2 78.496C337.2 76.248 337.848 74.344 338.352 72.696C338.904 71.048 339.352 69.6 339.352 67.648V67.6C339.352 57.448 337.704 55.848 335.904 52C333.8 51.8 329.952 51.248 326.656 47C323.808 43.304 323.704 39.6 323.656 36.6C323.608 35.048 323.608 33.6 323.2080000000001 32.096C320.2560000000001 21.048 315.9600000000001 13.544 313.312 10.792C309.1600000000001 16.096 299.9600000000001 32.744 294.712 46.696C287.816 64.944 281.36 82.144 268.408 79.848C262.456 78.8 258.1040000000001 75.048 255.856 69L254.904 65.904C254.856 65.704 254.7520000000001 65.4 254.7040000000001 65.208C254.6560000000001 65.408 254.5520000000001 65.712 254.5040000000001 65.904L253.5520000000001 69.056C251.3040000000001 75.104 246.9520000000001 78.856 241.0480000000001 79.904C228.0960000000001 82.208 221.6000000000001 65 214.7440000000001 46.752C209.4960000000001 32.752 200.2400000000001 16.056 196.0960000000001 10.8C193.4960000000001 13.496 189.1920000000001 21.048 186.2480000000001 32.152C185.8480000000001 33.656 185.8000000000001 35.104 185.8000000000001 36.656C185.7520000000001 39.656 185.6480000000001 43.352 182.8000000000001 47.056C179.4960000000001 51.304 175.704 51.856 173.5520000000001 52.008C171.7520000000001 55.808 169.8000000000001 57.408 169.8000000000001 67.608V67.656C169.8000000000001 69.56 170.2480000000001 71.008 170.8000000000001 72.704C171.304 74.304 171.952 76.208 171.952 78.456C171.952 80.304 171.504 82.408 170.256 84.656C166.56 91.304 159.608 92.656 154.0560000000001 93.456H138.96C139.912 90.608 140.7600000000001 88.456 141.512 87.456L143.416 85.856C145.816 84.76 148.568 84.352 151.464 83.952C156.664 83.256 160.216 82.6 161.712 79.904C162.408 78.656 162.36 78.256 161.512 75.704C160.864 73.752 160.0080000000001 71.104 160.0080000000001 67.656C160.0080000000001 53.904 164.0080000000001 48.256 166.16 45.256C168.0080000000001 42.656 170.808 42.456 172.312 42.304C173.76 42.208 174.216 42.152 175.064 41.056C175.912 40.008 175.968 39.008 176.016 36.408C176.064 34.56 176.112 32.2080000000001 176.816 29.608C179.464 19.608 186.32 2.208 195.2640000000001 0.104C199.2640000000001 -0.848 202.816 1.456 211.168 16.304C216.0160000000001 24.952 220.9200000000001 35.304 223.9200000000001 43.256C228.1200000000001 54.352 234.4240000000001 71.16 239.3680000000001 70.256C241.1200000000001 69.952 243.1200000000001 69.16 244.4160000000001 65.608C244.4160000000001 65.608 245.1680000000001 63.16 245.1680000000001 63.16C246.9200000000001 57.064 248.8640000000001 50.16 254.5200000000001 49.912H254.9200000000001C260.5680000000001 50.16 262.5680000000001 57.064 264.3200000000001 63.216L265.0160000000001 65.616C266.3200000000001 69.168 268.3200000000001 69.9680000000001 270.0640000000001 70.264C275.0160000000001 71.168 281.3120000000001 54.416 285.5120000000001 43.36C288.5600000000001 35.36 293.4080000000001 25.008 298.2640000000001 16.36C306.5680000000001 1.512 310.1600000000001 -0.7359999999999 314.1600000000001 0.1600000000001C323.1120000000001 2.2080000000001 330.0080000000001 19.664 332.6080000000001 29.664C333.3040000000001 32.264 333.3600000000001 34.568 333.4080000000001 36.4160000000001C333.4560000000001 39.0160000000001 333.5600000000001 40.0160000000001 334.3600000000001 41.0640000000001C335.2080000000001 42.1600000000001 335.7120000000001 42.216 337.1120000000001 42.312C338.6160000000001 42.464 341.4160000000001 42.664 343.2640000000001 45.264C345.4160000000001 48.264 349.1120000000001 53.912 349.1120000000001 67.6640000000001C349.1120000000001 71.1120000000001 348.2640000000001 73.816 347.6080000000001 75.7120000000001C346.7600000000001 78.264 346.7120000000001 78.6640000000001 347.4080000000001 79.912C348.9120000000001 82.608 352.4560000000001 83.264 357.6560000000001 83.96C360.5520000000001 84.36 363.3520000000001 84.7120000000001 365.7040000000001 85.864L367.6000000000001 87.464C368.3520000000001 88.512 369.2480000000001 90.664 370.2000000000001 93.512H355.0960000000001C349.5920000000001 92.712 342.5920000000001 91.312 338.8960000000002 84.712zM156.504 99.696V106.048H142.152V111.744H155.056V117.896H142.152V123.248H156.056V129.4H133.704V99.704H156.504zM168.848 99.696H175.4V116.544H175.496L187.648 99.696H194V129.4H187.448V113.696H187.352L176.752 129.4H168.848V99.696zM226.6 99.696V105.944H218.552C214.456 105.944 212.352 108.392 212.352 114.792C212.352 120.992 214.552 123.04 217.752 123.04H226.6V129.392H217.152C210.2 129.392 203.352 124.84 203.352 114.296C203.352 103.992 210.4 99.744 215.952 99.744H226.6zM236.504 99.696H245.008V111.544H253.456V99.696H261.96V129.4H253.456V118.2H245.008V129.4H236.504V99.696zM363.848 105.4H366.096C370.096 105.4 373.544 107.904 373.544 114.848C373.544 119.4 371.792 123.8 366.544 123.8H363.848V105.4zM355.352 129.4H367.352C377.248 129.4 382.504 123.2 382.504 114.8C382.504 108.152 379.552 99.704 366.608 99.704H355.36V129.408zM415.552 99.696V106.048H401.2000000000001V111.744H414.0480000000001V117.896H401.2000000000001V123.248H415.0960000000001V129.4H392.7440000000001V99.704H415.5440000000001zM327.504 112.448L330.2560000000001 120.8H330.36L332.9600000000001 112.448H327.5120000000001zM336.8 99.696H345.952L335.8 129.4H326.648L316.5440000000001 99.696H323.2960000000001L325.4000000000001 106.144H334.8L336.8 99.696zM274.152 99.8H280.656V120.8H280.76L287.656 99.8H292.704L299.3520000000001 120.8H299.4000000000001V99.8H307.9040000000001V129.4H295.8000000000001L291.2480000000001 115.248H291.1440000000001L286.4480000000001 129.4H274.0960000000001V99.8zM109.752 105.152H104.952V111.704H109.752C112.104 111.704 113.848 111.056 113.848 108.4C113.848 106.096 111.8 105.152 109.752 105.152zM109.296 124C111.344 124 113.592 123.304 113.592 120.848C113.592 118.344 111.496 117.648 109.296 117.648H104.944V124H109.296zM116.152 115C119.248 116 122.104 118.096 122.104 121.648C122.104 126.6 117.704 129.4 111.008 129.4H96.456V99.704H112.008C120.656 99.704 122.856 103.856 122.856 107.704C122.856 111.752 119.856 114.208 116.152 115.008zM236.096 22.952C236.096 19.152 238 17.448 240.6 17.448C243.152 17.448 245.104 19.144 245.104 22.952V35.704H242.008V22.656C242.008 21.056 241.456 20.408 240.656 20.408S239.304 21.056 239.304 22.656V35.704H236.208V22.952zM246.752 20.448V17.696H249.504V20.448H246.752zM250.848 18.304C251.752 17.856 252.8 17.552 254.048 17.552C256.496 17.552 258.496 19.456 258.496 22.248V22.296C258.496 24.344 257.944 25.448 255.496 28.296C253.992 30.048 253.744 30.344 253.744 31.2V31.248C253.744 32.248 254.496 32.8 255.344 32.8S256.744 32.552 257.744 31.952V35.2C256.992 35.6 256.24 35.752 254.944 35.752C252.44 35.752 250.592 33.9039999999999 250.592 31.056V31.008C250.592 28.808 251.496 27.656 253.592 25.2559999999999C255.096 23.5599999999999 255.344 22.9519999999999 255.344 22.104V22.056C255.344 20.96 254.592 20.504 253.696 20.504C252.848 20.504 252 20.856 250.848 21.504V18.304zM259.448 20.448V17.696H262.2V20.448H259.448zM269.048 24.096L268.096 30.048L267.096 24.096H269.048zM266.448 35.752H269.8L273.2 17.704H270.048L269.4479999999999 21.304H266.5999999999999L266.0479999999999 17.704H262.9999999999999L266.4479999999999 35.752zM274.048 20.448V17.696H276.8V20.448H274.048z" />
    </font>
</defs>
</svg>
